SilverTorrent
Register | Login




Advertising  (remove)
ST Encoder Torrents
posterposter
posterposter
Find us on Facebook


Details of this torrent
 Movies Star Wars -Episode 4- A New Hope 1977 1080p.BRRip.x264.AC3 Dual Audio Lektor i Napisy PL
Direct Download

Share this:  Bookmarked this torrents Tweet this Share on Facebook Digg  
Download: Downloade Torrent Magnet Download Cloud Download Direct Download
Don't know how to download? read this guide Forum
Info Hash: f56f153fec48a8023a98121bf15b40a8c5b4f42f
Who thanks:
Peers: Seeds: 26 , Leechers: 4 = 30 Peers     Update State
Trackers: 1  View torrent trackers
Health: Health
Last Update: 11-06-2013, 19:34:03
Category: Categories > Movies > BRRips 1080p
Size: 4.93 GB
Torrent statusVerified torrent Verified by on
Show files:
4 files
Uploader: Anonymous
AddDate: Tuesday, 28th May 2013
Report: Report

Direct Download

Torrent Description
Gwiezdne wojny Część IV: Nowa nadzieja-Star Wars -Episode 4- A New Hope (1977)[1080p.BRRip.x264.AC3][Dual Audio][Lektor i Napisy PL] Data premiery - 25 maja 1977 (Świat), 30 marca 1979 (Polska) Produkcja - Stany Zjednoczone Reżyseria - George Lucas Scenariusz - George Lucas Muzyka - John Williams Zdjęcia - Gilbert Taylor Scenografia - Roger Christian Wytwórnia - Lucasfilm, 20th Century Fox Gatunek - Przygodowy, Sci-Fi Czas trwania - 2h 4mn Opis: Galaktyką wstrząsa wojna domowa. Rycerze Jedi, którzy strzegli międzygwiezdnego pokoju, zostali praktycznie wytępieni przez Imperatora. Jednak siły rebeliantów, na czele z księżniczką Leią, odnoszą sukcesy. Udaje im się wykraść plany potężnej broni Imperium Gwiazdy Śmierci. Darth Vader otrzymuje zadanie odnalezienia ukrytej bazy buntowników i odzyskania planów. Po przechwyceniu statku na którym podróżowała, Leia Organa zostaje uwięziona, a wysłany przez nią sygnał z wezwaniem pomocy przypadkowo dociera do Luke'a Skywalkera (Mark Hamill). Ten postanawia wyjść naprzeciw przeznaczeniu i dołączyć do rebelii. obsada: Mark Hamill - Luke Skywalker Harrison Ford - Han Solo Carrie Fisher - Księżniczka Leia Organa Alec Guinness - Obi-Wan Kenobi David Prowse - Darth Vader Peter Cushing - Wielki Moff Wilhuf Tarkin Peter Mayhew - Chewbacca Anthony Daniels - C-3PO Kenny Baker - R2-D2 General: Unique ID : 173768433376030851039298762236806898028 (0x82BA953A6DFD2D9C85384B215149216C) Complete name : Star Wars -Episode 4- A New Hope (1977)[1080p.BRRip.x264.AC3][Dual Audio][Lektor i Napisy PL].mkv Format : Matroska Format version : Version 2 File size : 4.93 GiB Duration : 2h 4mn Overall bit rate : 5 661 Kbps Movie name : Star Wars - A New Hope Encoded date : UTC 2013-04-22 19:14:15 Writing application : mkvmerge v5.7.0 Writing library : libebml v1.2.3 + libmatroska v1.3.0 Video ID : 1 Format : AVC Format/Info : Advanced Video Codec Format profile : High@L4.1 Format settings, CABAC : Yes Format settings, ReFrames : 5 frames Codec ID : V_MPEG4/ISO/AVC Duration : 2h 4mn Bit rate : 4 571 Kbps Width : 1 920 pixels Height : 816 pixels Display aspect ratio : 2.35:1 Frame rate : 23.976 fps Color space : YUV Chroma subsampling : 4:2:0 Bit depth : 8 bits Scan type : Progressive Bits/(Pixel*Frame) : 0.122 Stream size : 3.89 GiB (79%) Writing library : x264 core 116 r2044 392e762 Encoding settings : cabac=1 / ref=5 / deblock=1:0:0 / analyse=0x3:0x113 / me=umh / subme=9 / psy=1 / psy_rd=1.00:0.00 / mixed_ref=1 / me_range=16 / chroma_me=1 / trellis=1 / 8x8dct=1 / cqm=0 / deadzone=21,11 / fast_pskip=1 / chroma_qp_offset=-2 / threads=12 / sliced_threads=0 / nr=0 / decimate=1 / interlaced=0 / bluray_compat=0 / constrained_intra=0 / bframes=5 / b_pyramid=2 / b_adapt=1 / b_bias=0 / direct=1 / weightb=1 / open_gop=0 / weightp=2 / keyint=250 / keyint_min=23 / scenecut=40 / intra_refresh=0 / rc_lookahead=40 / rc=2pass / mbtree=1 / bitrate=4571 / ratetol=1.0 / qcomp=0.60 / qpmin=0 / qpmax=69 / qpstep=4 / cplxblur=20.0 / qblur=0.5 / vbv_maxrate=20000 / vbv_bufsize=15000 / nal_hrd=none / ip_ratio=1.40 / aq=1:1.00 Language : English Color primaries : BT.709-5, BT.1361, IEC 61966-2-4, SMPTE RP177 Transfer characteristics : BT.709-5, BT.1361 Matrix coefficients : BT.709-5, BT.1361, IEC 61966-2-4 709, SMPTE RP177 Audio #1 ID : 2 Format : AC-3 Format/Info : Audio Coding 3 Mode extension : CM (complete main) Codec ID : A_AC3 Duration : 2h 4mn Bit rate mode : Constant Bit rate : 448 Kbps Channel(s) : 6 channels Channel positions : Front: L C R, Side: L R, LFE Sampling rate : 48.0 KHz Bit depth : 16 bits Compression mode : Lossy Stream size : 400 MiB (8%) Title : English AC3 Language : English Audio #2 ID : 3 Format : AC-3 Format/Info : Audio Coding 3 Mode extension : CM (complete main) Codec ID : A_AC3 Duration : 2h 4mn Bit rate mode : Constant Bit rate : 640 Kbps Channel(s) : 6 channels Channel positions : Front: L C R, Side: L R, LFE Sampling rate : 48.0 KHz Bit depth : 16 bits Compression mode : Lossy Stream size : 571 MiB (11%) Title : Polish Lector AC3 Language : Polish Text ID : 4 Format : UTF-8 Codec ID : S_TEXT/UTF8 Codec ID/Info : UTF-8 Plain Text Title : Polish subs Language : Polish --plik sample jest w pierwszej czesci--


Comments (0)    Add your comment

No comments...